<?xml version="1.0" standalone="no"?>
<!DOCTYPE svg PUBLIC "-//W3C//DTD SVG 1.1//EN" "http://www.w3.org/Graphics/SVG/1.1/DTD/svg11.dtd" >
<svg xmlns="http://www.w3.org/2000/svg" xmlns:xlink="http://www.w3.org/1999/xlink" version="1.1">
<metadata>
Created by FontForge 20170731 at Mon Aug  1 16:26:37 2016
 By Aleksey,,,
Copyright (c) Mark Simonson, 2005. All rights reserved.
</metadata>
<defs>
<font id="ProximaNova-Medium" horiz-adv-x="0" >
  <font-face 
    font-family="ProximaNova-Medium"
    font-weight="400"
    font-stretch="normal"
    units-per-em="1000"
    panose-1="2 0 5 6 3 0 0 2 0 4"
    ascent="775"
    descent="-225"
    x-height="483"
    cap-height="667"
    bbox="-44 -199 882 752"
    underline-thickness="20"
    underline-position="-153"
    unicode-range="U+0020-FB04"
  />
<missing-glyph horiz-adv-x="500" 
d="M74 752h351v-842h-351v842zM105 722v-782h288v782h-288z" />
    <glyph glyph-name="f_f" unicode="ff" horiz-adv-x="592" 
d="M94 404h-80v79h80v32q0 76 40.5 119t106.5 43q48 0 79 -18l-21 -67q-19 11 -43 11q-34 0 -53 -22.5t-19 -65.5v-32h98v-79h-98v-404h-90v404zM390 404h-80v79h80v32q0 76 40.5 119t106.5 43q48 0 79 -18l-21 -67q-19 11 -43 11q-34 0 -53 -22.5t-19 -65.5v-32h98v-79h-98
v-404h-90v404z" />
    <glyph glyph-name="fi" unicode="fi" horiz-adv-x="529" 
d="M94 404h-80v79h80v32q0 76 40.5 119t106.5 43q48 0 79 -18l-21 -67q-17 11 -43 11q-34 0 -53 -22.5t-19 -65.5v-32h98v-79h-98v-404h-90v404zM371.5 576q-17.5 17 -17.5 41t17 40.5t41 16.5t41 -16.5t17 -40.5t-17 -41t-41 -17q-23 0 -40.5 17zM368 483h90v-483h-90v483z
" />
    <glyph glyph-name="fl" unicode="fl" horiz-adv-x="529" 
d="M94 404h-80v79h80v32q0 76 40.5 119t106.5 43q48 0 79 -18l-21 -67q-17 11 -43 11q-34 0 -53 -22.5t-19 -65.5v-32h98v-79h-98v-404h-90v404zM368 667h90v-667h-90v667z" />
    <glyph glyph-name="f_f_i" unicode="ffi" horiz-adv-x="825" 
d="M94 404h-80v79h80v32q0 76 40.5 119t106.5 43q48 0 79 -18l-21 -67q-19 11 -43 11q-34 0 -53 -22.5t-19 -65.5v-32h98v-79h-98v-404h-90v404zM390 404h-80v79h80v32q0 76 40.5 119t106.5 43q48 0 79 -18l-21 -67q-17 11 -43 11q-34 0 -53 -22.5t-19 -65.5v-32h98v-79h-98
v-404h-90v404zM667.5 576q-17.5 17 -17.5 41t17 40.5t41 16.5t41 -16.5t17 -40.5t-17 -41t-41 -17q-23 0 -40.5 17zM664 483h90v-483h-90v483z" />
    <glyph glyph-name="f_f_l" unicode="ffl" horiz-adv-x="825" 
d="M94 404h-80v79h80v32q0 76 40.5 119t106.5 43q48 0 79 -18l-21 -67q-19 11 -43 11q-34 0 -53 -22.5t-19 -65.5v-32h98v-79h-98v-404h-90v404zM390 404h-80v79h80v32q0 76 40.5 119t106.5 43q48 0 79 -18l-21 -67q-17 11 -43 11q-34 0 -53 -22.5t-19 -65.5v-32h98v-79h-98
v-404h-90v404zM664 667h90v-667h-90v667z" />
    <glyph glyph-name="f_b" unicode="fb" 
 />
    <glyph glyph-name="f_h" unicode="fh" 
 />
    <glyph glyph-name="f_j" unicode="fj" 
 />
    <glyph glyph-name="f_k" unicode="fk" 
 />
    <glyph glyph-name="f_f_j" unicode="ffj" 
 />
    <glyph glyph-name=".notdef" horiz-adv-x="500" 
d="M74 752h351v-842h-351v842zM105 722v-782h288v782h-288z" />
    <glyph glyph-name=".null" 
 />
    <glyph glyph-name="nonmarkingreturn" 
 />
    <glyph glyph-name="space" unicode=" " horiz-adv-x="258" 
 />
    <glyph glyph-name="quotesingle" unicode="'" horiz-adv-x="206" 
d="M64 524.5q-13 90.5 -13 100.5q0 21 15 36.5t37 15.5t37.5 -15.5t15.5 -36.5q0 -10 -13 -100.5t-18 -123.5h-43q-5 33 -18 123.5z" />
    <glyph glyph-name="parenleft" unicode="(" horiz-adv-x="262" 
d="M81.5 6.5q-38.5 116.5 -38.5 236.5t38.5 236t107.5 206l55 -41q-52 -102 -77.5 -194t-25.5 -207t25.5 -207t77.5 -193l-55 -42q-69 89 -107.5 205.5z" />
    <glyph glyph-name="parenright" unicode=")" horiz-adv-x="262" 
d="M95.5 450.5q-25.5 92.5 -78.5 193.5l55 41q70 -90 108.5 -205.5t38.5 -236.5t-38.5 -237t-108.5 -205l-55 42q53 100 78.5 192.5t25.5 207.5t-25.5 207.5z" />
    <glyph glyph-name="asterisk" unicode="*" horiz-adv-x="343" 
d="M151 496l-95 -62l-25 44l101 51l-101 52l25 44l95 -61l-5 113h51l-6 -113l95 61l25 -44l-100 -52l100 -51l-25 -44l-95 62l6 -113h-51z" />
    <glyph glyph-name="plus" unicode="+" horiz-adv-x="500" 
d="M283 97h-66v210h-188v60h188v203h66v-203h188v-60h-188v-210z" />
    <glyph glyph-name="comma" unicode="," horiz-adv-x="238" 
d="M57 -95q25 15 44.5 42t23.5 51q-2 0 -6 -1t-9 -1q-23 0 -38.5 16t-15.5 41q0 26 18 43.5t43 17.5q29 0 49.5 -22.5t20.5 -60.5q0 -47 -24 -90t-64 -71z" />
    <glyph glyph-name="hyphen" unicode="-" horiz-adv-x="300" 
d="M30 281h240v-78h-240v78z" />
    <glyph glyph-name="period" unicode="." horiz-adv-x="238" 
d="M74.5 96q18.5 18 43.5 18q26 0 44.5 -18.5t18.5 -43.5t-18.5 -44t-44.5 -19q-25 0 -43.5 18.5t-18.5 44.5t18.5 44z" />
    <glyph glyph-name="zero" unicode="0" horiz-adv-x="614" 
d="M74 499.5q28 78.5 86.5 128t146.5 49.5t146.5 -49.5t86.5 -128t28 -166.5t-28 -166.5t-86.5 -128.5t-146.5 -50t-146.5 50t-86.5 128.5t-28 166.5t28 166.5zM427.5 515q-38.5 73 -120.5 73t-120.5 -73t-38.5 -182t38.5 -182.5t120.5 -73.5t120.5 73.5t38.5 182.5
t-38.5 182z" />
    <glyph glyph-name="one" unicode="1" horiz-adv-x="359" 
d="M185 536l-108 -113l-59 61l179 183h88v-667h-100v536z" />
    <glyph glyph-name="three" unicode="3" horiz-adv-x="565" 
d="M82 162q32 -39 81.5 -62t104.5 -23q69 0 108 30.5t39 83.5q0 105 -157 105q-62 0 -72 -1v91q11 -1 72 -1q65 0 106 25t41 74t-40.5 76.5t-102.5 27.5q-51 0 -93.5 -19.5t-80.5 -57.5l-53 62q40 47 100 75.5t136 28.5q104 0 169 -48t65 -131q0 -64 -44 -104t-101 -50
q35 -3 70.5 -22.5t60 -55.5t24.5 -85q0 -56 -29.5 -100t-85 -68.5t-129.5 -24.5q-83 0 -147 30.5t-98 78.5z" />
    <glyph glyph-name="four" unicode="4" horiz-adv-x="569" 
d="M347 160h-317v82l280 425h137v-419h92v-88h-92v-160h-100v160zM129 248h218v328z" />
    <glyph glyph-name="five" unicode="5" horiz-adv-x="595" 
d="M120 161q68 -84 182 -84q64 0 104.5 37t40.5 93q0 60 -39 95.5t-104 35.5q-44 0 -80.5 -14.5t-69.5 -45.5l-72 23v366h422v-88h-322v-213q26 26 66.5 42.5t86.5 16.5q57 0 105.5 -25.5t78 -74t29.5 -114.5q0 -67 -31.5 -117.5t-87.5 -78t-126 -27.5q-158 0 -242 105z" />
    <glyph glyph-name="six" unicode="6" horiz-adv-x="596" 
d="M77.5 506.5q31.5 78.5 95.5 124.5t156 46q116 0 188 -77l-49 -76q-28 32 -60 48t-79 16q-58 0 -99 -33.5t-62 -88.5t-21 -119q0 -15 1 -22q24 38 75 68t108 30q61 0 111.5 -24.5t80 -72.5t29.5 -117q0 -60 -29.5 -110.5t-84.5 -80.5t-126 -30q-91 0 -151 46.5t-87.5 124
t-27.5 173.5t31.5 174.5zM410 303.5q-41 33.5 -104 33.5q-46 0 -88 -24.5t-69 -64.5q7 -70 45.5 -120.5t112.5 -50.5q45 0 78 19t49.5 49t16.5 61q0 64 -41 97.5z" />
    <glyph glyph-name="eight" unicode="8" horiz-adv-x="588" 
d="M91 277.5q44 45.5 110 66.5q-63 19 -103 59t-40 100q0 58 34 97t88 58t115 19q60 0 114 -19t88 -58.5t34 -96.5q0 -60 -40.5 -100t-103.5 -59q66 -21 110 -66.5t44 -107.5q0 -56 -33 -97.5t-89.5 -63t-123.5 -21.5q-69 0 -125.5 21.5t-89.5 62.5t-33 98q0 62 44 107.5z
M391.5 561q-38.5 27 -96.5 27q-60 0 -98 -27t-38 -73t44 -71t92 -33q48 8 91.5 33t43.5 71t-38.5 73zM415 243q-26 25 -60 39t-60 17q-26 -3 -60.5 -16.5t-60.5 -39t-26 -61.5q0 -47 42.5 -76t104.5 -29q60 0 103 29t43 76q0 36 -26 61z" />
    <glyph glyph-name="A" unicode="A" horiz-adv-x="666" 
d="M496 138h-327l-54 -138h-110l265 667h125l265 -667h-110zM198 227h269l-135 353z" />
    <glyph glyph-name="C" unicode="C" horiz-adv-x="679" 
d="M215 31.5q-78 43.5 -123.5 122.5t-45.5 179t45.5 179t123.5 122.5t173 43.5q171 0 265 -141l-85 -45q-27 44 -75 70.5t-105 26.5q-67 0 -121.5 -33t-86 -91t-31.5 -132q0 -73 31.5 -131.5t86 -91.5t121.5 -33q57 0 105 26.5t75 70.5l85 -45q-96 -141 -265 -141
q-95 0 -173 43.5z" />
    <glyph glyph-name="I" unicode="I" horiz-adv-x="249" 
d="M74 667h100v-667h-100v667z" />
    <glyph glyph-name="P" unicode="P" horiz-adv-x="597" 
d="M74 667h281q66 0 114.5 -27.5t73.5 -74.5t25 -103t-25.5 -103t-73.5 -74.5t-114 -27.5h-181v-257h-100v667zM430.5 546.5q-34.5 32.5 -88.5 32.5h-168v-234h168q54 0 88.5 32.5t34.5 84.5t-34.5 84.5z" />
    <glyph glyph-name="T" unicode="T" horiz-adv-x="573" 
d="M237 579h-207v88h513v-88h-206v-579h-100v579z" />
    <glyph glyph-name="U" unicode="U" horiz-adv-x="710" 
d="M74 667h101v-403q0 -87 47 -137t133 -50t132.5 50t46.5 137v403h101v-405q0 -128 -71.5 -201t-208.5 -73t-209 73.5t-72 199.5v406z" />
    <glyph glyph-name="W" unicode="W" horiz-adv-x="893" 
d="M446 515l-138 -515h-107l-191 667h112l138 -535l146 535h81l145 -535l138 535h112l-190 -667h-107z" />
    <glyph glyph-name="bracketleft" unicode="[" horiz-adv-x="254" 
d="M42 678h195v-64h-127v-740h127v-64h-195v868z" />
    <glyph glyph-name="backslash" unicode="\" horiz-adv-x="306" 
d="M69 687l237 -707h-69l-237 707h69z" />
    <glyph glyph-name="bracketright" unicode="]" horiz-adv-x="254" 
d="M17 -126h127v740h-127v64h195v-868h-195v64z" />
    <glyph glyph-name="asciicircum" unicode="^" horiz-adv-x="434" 
d="M217 603l-127 -270h-71l165 334h67l164 -334h-70z" />
    <glyph glyph-name="underscore" unicode="_" horiz-adv-x="564" 
d="M-3 -40h570v-64h-570v64z" />
    <glyph glyph-name="grave" unicode="`" horiz-adv-x="233" 
d="M0 700h89l144 -144h-66z" />
    <glyph glyph-name="a" unicode="a" horiz-adv-x="532" 
d="M370 53q-29 -32 -69 -48.5t-89 -16.5q-42 0 -80.5 18.5t-63 55t-24.5 86.5q0 52 24 87.5t62.5 53t81.5 17.5q50 0 90.5 -16t67.5 -48v80q0 44 -32.5 70t-85.5 26q-81 0 -145 -64l-39 62q80 79 198 79q86 0 140 -41t54 -128v-326h-90v53zM370 188q-20 27 -53 41t-71 14
q-49 0 -80 -26.5t-31 -69.5t31 -69.5t80 -26.5q38 0 71 14t53 41v82z" />
    <glyph glyph-name="b" unicode="b" horiz-adv-x="578" 
d="M72 667h90v-254q29 39 70 60.5t88 21.5q63 0 111.5 -31.5t76 -89t27.5 -133.5q0 -77 -27.5 -134.5t-76 -88t-111.5 -30.5q-47 0 -88.5 22t-69.5 59v-69h-90v667zM218 88q38 -20 78 -20q67 0 106.5 48t39.5 125t-39.5 125.5t-106.5 48.5q-40 0 -77.5 -21t-56.5 -51v-205
q18 -30 56 -50z" />
    <glyph glyph-name="c" unicode="c" horiz-adv-x="496" 
d="M73 371.5q31 57.5 87 90.5t128 33q118 0 181 -85l-60 -55q-42 60 -117 60q-70 0 -113 -48.5t-43 -124.5t43 -125t113 -49q74 0 117 60l60 -55q-63 -85 -181 -85q-72 0 -128 33t-87 91t-31 130t31 129.5z" />
    <glyph glyph-name="d" unicode="d" horiz-adv-x="578" 
d="M416 69q-28 -37 -69.5 -59t-88.5 -22q-63 0 -112 30.5t-76.5 87.5t-27.5 135q0 76 27.5 133.5t76.5 89t112 31.5q46 0 87.5 -21.5t70.5 -60.5v254h90v-667h-90v69zM416 344q-19 30 -56.5 50.5t-77.5 20.5q-67 0 -106.5 -48.5t-39.5 -125.5q0 -76 39.5 -124.5t106.5 -48.5
q40 0 77.5 20t56.5 50v206z" />
    <glyph glyph-name="e" unicode="e" horiz-adv-x="560" 
d="M73 369q31 58 86.5 92t124.5 34q71 0 124.5 -34t82 -93.5t28.5 -133.5v-22h-382q5 -64 49.5 -107t114.5 -43q39 0 78 15t65 42l42 -59q-36 -35 -85.5 -53.5t-108.5 -18.5q-72 0 -128.5 32t-89 89.5t-32.5 132.5q0 69 31 127zM205.5 399.5q-32.5 -21.5 -49.5 -54.5
t-20 -68h295q-1 35 -17 68t-49 54.5t-81 21.5q-46 0 -78.5 -21.5z" />
    <glyph glyph-name="f" unicode="f" horiz-adv-x="296" 
d="M94 404h-80v79h80v32q0 76 40.5 119t106.5 43q48 0 79 -18l-21 -67q-19 11 -43 11q-34 0 -53 -22.5t-19 -65.5v-32h98v-79h-98v-404h-90v404z" />
    <glyph glyph-name="g" unicode="g" horiz-adv-x="577" 
d="M111 -58q29 -34 66.5 -49t88.5 -15q63 0 106.5 33.5t43.5 104.5v63q-29 -38 -70.5 -60.5t-88.5 -22.5q-63 0 -111.5 30t-76 86.5t-27.5 133.5q0 76 27.5 132.5t76 86.5t111.5 30q47 0 88.5 -21.5t70.5 -60.5v70h90v-464q0 -115 -68.5 -165t-171.5 -50q-63 0 -109.5 16
t-88.5 56zM416 344q-19 30 -56.5 50.5t-77.5 20.5q-67 0 -106.5 -47t-39.5 -122q0 -76 39.5 -123t106.5 -47q39 0 77 21t57 51v196z" />
    <glyph glyph-name="h" unicode="h" horiz-adv-x="560" 
d="M398 311q0 57 -26.5 80.5t-76.5 23.5q-40 0 -76 -20.5t-57 -49.5v-345h-90v667h90v-252q27 33 73 56.5t98 23.5q155 0 155 -154v-341h-90v311z" />
    <glyph glyph-name="i" unicode="i" horiz-adv-x="233" 
d="M75.5 576q-17.5 17 -17.5 41t17 40.5t41 16.5t41 -16.5t17 -40.5t-17 -41t-41 -17q-23 0 -40.5 17zM72 483h90v-483h-90v483z" />
    <glyph glyph-name="j" unicode="j" horiz-adv-x="233" 
d="M75.5 576q-17.5 17 -17.5 41t17 40.5t41 16.5t41 -16.5t17 -40.5t-17 -41t-41 -17q-23 0 -40.5 17zM162 -38q0 -75 -39 -116.5t-112 -41.5q-31 0 -55 6l11 75q12 -4 33 -4q33 0 52.5 20t19.5 61v521h90v-521z" />
    <glyph glyph-name="k" unicode="k" horiz-adv-x="520" 
d="M235 208l-73 -74v-134h-90v667h90v-429l233 245h113l-208 -219l210 -264h-114z" />
    <glyph glyph-name="l" unicode="l" horiz-adv-x="233" 
d="M72 667h90v-667h-90v667z" />
    <glyph glyph-name="m" unicode="m" horiz-adv-x="820" 
d="M659 322q0 44 -20.5 68.5t-63.5 24.5q-35 0 -68 -20.5t-52 -48.5v-346h-90v322q0 93 -85 93q-33 0 -65.5 -20.5t-52.5 -49.5v-345h-90v483h90v-68q18 28 62.5 54t93.5 26q53 0 86 -24.5t45 -65.5q23 37 68 63.5t95 26.5q67 0 102 -37t35 -109v-349h-90v322z" />
    <glyph glyph-name="n" unicode="n" horiz-adv-x="559" 
d="M398 309q0 57 -26.5 81.5t-76.5 24.5q-40 0 -76 -20.5t-57 -49.5v-345h-90v483h90v-68q27 33 73 56.5t98 23.5q76 0 115.5 -39.5t39.5 -116.5v-339h-90v309z" />
    <glyph glyph-name="o" unicode="o" horiz-adv-x="572" 
d="M157.5 22q-55.5 34 -85.5 92t-30 128t30 127.5t85.5 91.5t128.5 34t128.5 -34t85.5 -91.5t30 -127.5t-30 -128t-85.5 -92t-128.5 -34t-128.5 34zM367 92q34 24 51.5 63.5t17.5 86.5q0 46 -17.5 86t-51.5 63.5t-81 23.5q-46 0 -80 -24t-52 -63.5t-18 -85.5q0 -47 18 -86.5
t52 -63.5t80 -24q47 0 81 24z" />
    <glyph glyph-name="p" unicode="p" horiz-adv-x="577" 
d="M72 -184v667h90v-69q27 37 68.5 59t89.5 22q63 0 111.5 -30.5t76 -87.5t27.5 -135t-27.5 -135.5t-76 -88t-111.5 -30.5q-47 0 -88 21t-70 61v-254h-90zM401.5 366.5q-39.5 48.5 -105.5 48.5q-40 0 -78 -20.5t-56 -50.5v-205q19 -30 56.5 -50.5t77.5 -20.5
q66 0 105.5 48.5t39.5 125.5q0 76 -39.5 124.5z" />
    <glyph glyph-name="q" unicode="q" horiz-adv-x="577" 
d="M416 -184v254q-29 -40 -70.5 -61t-88.5 -21q-63 0 -111.5 30.5t-76 88t-27.5 135.5t27.5 135t76 87.5t111.5 30.5q48 0 89.5 -22t69.5 -59v69h90v-667h-90zM416 344q-19 30 -56.5 50.5t-77.5 20.5q-67 0 -106.5 -48.5t-39.5 -124.5q0 -77 39.5 -125.5t106.5 -48.5
q39 0 77 20.5t57 50.5v205z" />
    <glyph glyph-name="r" unicode="r" horiz-adv-x="338" 
d="M72 483h90v-74q29 38 70.5 61.5t87.5 23.5v-91q-14 3 -31 3q-34 0 -72.5 -21.5t-54.5 -48.5v-336h-90v483z" />
    <glyph glyph-name="s" unicode="s" horiz-adv-x="468" 
d="M73 129q26 -29 71 -49t91 -20q50 0 77 18.5t27 50.5t-30 48.5t-87 29.5q-56 13 -91.5 26.5t-61 42t-25.5 76.5q0 39 22 71.5t63.5 52t98.5 19.5q111 0 184 -69l-40 -63q-22 26 -60 42.5t-83 16.5q-46 0 -72.5 -17t-26.5 -46q0 -28 28 -42.5t84 -27.5q58 -13 94.5 -27
t63 -44.5t26.5 -81.5q0 -65 -51.5 -106.5t-143.5 -41.5q-61 0 -113 19t-88 56z" />
    <glyph glyph-name="t" unicode="t" horiz-adv-x="306" 
d="M119 19q-29 31 -29 88v297h-80v79h80v132h90v-132h98v-79h-98v-277q0 -26 12 -42.5t35 -16.5q15 0 28.5 5.5t20.5 13.5l23 -68q-33 -31 -94 -31q-57 0 -86 31z" />
    <glyph glyph-name="u" unicode="u" horiz-adv-x="559" 
d="M398 66q-31 -34 -75.5 -56t-96.5 -22q-154 0 -154 154v341h90v-311q0 -57 26 -80.5t76 -23.5q40 0 76 19.5t58 48.5v347h90v-483h-90v66z" />
    <glyph glyph-name="v" unicode="v" horiz-adv-x="497" 
d="M1 483h96l151 -379l151 379h97l-199 -483h-97z" />
    <glyph glyph-name="w" unicode="w" horiz-adv-x="744" 
d="M372 371l-119 -371h-93l-152 483h94l110 -368l121 368h78l121 -368l110 368h94l-152 -483h-93z" />
    <glyph glyph-name="x" unicode="x" horiz-adv-x="491" 
d="M246 188l-136 -188h-102l181 248l-170 235h102l125 -174l124 174h102l-171 -235l182 -248h-102z" />
    <glyph glyph-name="y" unicode="y" horiz-adv-x="497" 
d="M102 -116q26 0 42.5 10.5t27.5 36.5l28 64l-199 488h96l151 -379l151 379h97l-238 -575q-22 -55 -60.5 -79t-93.5 -25q-13 0 -29.5 2t-26.5 5l14 81q18 -8 40 -8z" />
    <glyph glyph-name="z" unicode="z" horiz-adv-x="474" 
d="M49 69l252 335h-252v79h371v-67l-254 -338h258v-78h-375v69z" />
    <glyph glyph-name="quoteright" unicode="&#x2019;" horiz-adv-x="237" 
d="M57 467q24 15 44 42.5t24 51.5q-6 -3 -15 -3q-23 0 -38.5 16t-15.5 41q0 26 18 44t43 18q29 0 49.5 -22.5t20.5 -60.5q0 -48 -24 -91t-64 -70z" />
    <glyph glyph-name="quotesinglbase" unicode="&#x201a;" horiz-adv-x="238" 
d="M57 -95q25 15 44.5 42t23.5 51q-2 0 -6 -1t-9 -1q-23 0 -38.5 16t-15.5 41q0 26 18 43.5t43 17.5q29 0 49.5 -22.5t20.5 -60.5q0 -47 -24 -90t-64 -71z" />
    <glyph glyph-name="quotereversed" unicode="&#x201b;" horiz-adv-x="237" 
d="M163 659q18 -18 18 -44q0 -25 -15.5 -41t-38.5 -16q-7 0 -16 3q4 -24 24.5 -51.5t44.5 -42.5l-42 -34q-40 27 -64 70t-24 91q0 38 20.5 60.5t49.5 22.5q25 0 43 -18z" />
    <glyph glyph-name="quotedblleft" unicode="&#x201c;" horiz-adv-x="409" 
d="M180 643q-25 -16 -45 -42.5t-24 -51.5q4 2 16 2q23 0 38 -16t15 -41t-17.5 -43t-43.5 -18q-29 0 -49 23t-20 61q0 47 24 89.5t63 70.5zM352 643q-25 -15 -44.5 -42t-23.5 -52q4 2 15 2q23 0 38.5 -16t15.5 -41t-18 -43t-43 -18q-29 0 -49 23t-20 61q0 47 23.5 89.5
t62.5 70.5z" />
    <glyph glyph-name="NULL" 
 />
    <glyph glyph-name="uni00A0" 
 />
    <glyph glyph-name="uni2009" 
 />
    <glyph glyph-name="uni200A" 
 />
    <glyph glyph-name="uni2001" 
 />
    <glyph glyph-name="uni2003" 
 />
    <glyph glyph-name="uni2000" 
 />
    <glyph glyph-name="uni2002" 
 />
    <glyph glyph-name="uni2005" 
 />
    <glyph glyph-name="uni2006" 
 />
    <glyph glyph-name="uni2004" 
 />
    <glyph glyph-name="uni2007" 
 />
    <glyph glyph-name="uni2008" 
 />
    <glyph glyph-name="zero.pzero" 
 />
    <glyph glyph-name="two" 
 />
    <glyph glyph-name="seven" 
 />
    <glyph glyph-name="nine" 
 />
    <glyph glyph-name="zero.tnum" 
 />
    <glyph glyph-name="zero.tzero" 
 />
    <glyph glyph-name="one.tnum" 
 />
    <glyph glyph-name="one.tnum_alt" 
 />
    <glyph glyph-name="two.tnum" 
 />
    <glyph glyph-name="three.tnum" 
 />
    <glyph glyph-name="four.tnum" 
 />
    <glyph glyph-name="five.tnum" 
 />
    <glyph glyph-name="six.tnum" 
 />
    <glyph glyph-name="seven.tnum" 
 />
    <glyph glyph-name="eight.tnum" 
 />
    <glyph glyph-name="nine.tnum" 
 />
    <glyph glyph-name="zero.tonum" 
 />
    <glyph glyph-name="zero.tonumzero" 
 />
    <glyph glyph-name="one.tonum" 
 />
    <glyph glyph-name="two.tonum" 
 />
    <glyph glyph-name="three.tonum" 
 />
    <glyph glyph-name="four.tonum" 
 />
    <glyph glyph-name="five.tonum" 
 />
    <glyph glyph-name="six.tonum" 
 />
    <glyph glyph-name="seven.tonum" 
 />
    <glyph glyph-name="eight.tonum" 
 />
    <glyph glyph-name="nine.tonum" 
 />
    <glyph glyph-name="zero.onum" 
 />
    <glyph glyph-name="zero.onumzero" 
 />
    <glyph glyph-name="one.onum" 
 />
    <glyph glyph-name="two.onum" 
 />
    <glyph glyph-name="three.onum" 
 />
    <glyph glyph-name="four.onum" 
 />
    <glyph glyph-name="five.onum" 
 />
    <glyph glyph-name="six.onum" 
 />
    <glyph glyph-name="seven.onum" 
 />
    <glyph glyph-name="eight.onum" 
 />
    <glyph glyph-name="nine.onum" 
 />
    <glyph glyph-name="B" 
 />
    <glyph glyph-name="D" 
 />
    <glyph glyph-name="E" 
 />
    <glyph glyph-name="F" 
 />
    <glyph glyph-name="G" 
 />
    <glyph glyph-name="G.alt1" 
 />
    <glyph glyph-name="H" 
 />
    <glyph glyph-name="J" 
 />
    <glyph glyph-name="K" 
 />
    <glyph glyph-name="L" 
 />
    <glyph glyph-name="M" 
 />
    <glyph glyph-name="N" 
 />
    <glyph glyph-name="O" 
 />
    <glyph glyph-name="Q" 
 />
    <glyph glyph-name="R" 
 />
    <glyph glyph-name="S" 
 />
    <glyph glyph-name="V" 
 />
    <glyph glyph-name="X" 
 />
    <glyph glyph-name="Y" 
 />
    <glyph glyph-name="Z" 
 />
    <glyph glyph-name="a.alt1" 
 />
    <glyph glyph-name="f.alt1" horiz-adv-x="296" 
d="M94 404h-80v79h80v32q0 76 40.5 119t106.5 43q48 0 79 -18l-21 -67q-17 11 -43 11q-34 0 -53 -22.5t-19 -65.5v-32h98v-79h-98v-404h-90v404z" />
    <glyph glyph-name="l.alt1" 
 />
    <glyph glyph-name="y.alt1" 
 />
    <glyph glyph-name="A.smcp" 
 />
    <glyph glyph-name="B.smcp" 
 />
    <glyph glyph-name="C.smcp" 
 />
    <glyph glyph-name="D.smcp" 
 />
    <glyph glyph-name="E.smcp" 
 />
    <glyph glyph-name="F.smcp" 
 />
    <glyph glyph-name="G.smcp" 
 />
    <glyph glyph-name="G.smcp.alt1" 
 />
    <glyph glyph-name="H.smcp" 
 />
    <glyph glyph-name="I.smcp" 
 />
    <glyph glyph-name="J.smcp" 
 />
    <glyph glyph-name="K.smcp" 
 />
    <glyph glyph-name="L.smcp" 
 />
    <glyph glyph-name="M.smcp" 
 />
    <glyph glyph-name="N.smcp" 
 />
    <glyph glyph-name="O.smcp" 
 />
    <glyph glyph-name="P.smcp" 
 />
    <glyph glyph-name="Q.smcp" 
 />
    <glyph glyph-name="R.smcp" 
 />
    <glyph glyph-name="S.smcp" 
 />
    <glyph glyph-name="T.smcp" 
 />
    <glyph glyph-name="U.smcp" 
 />
    <glyph glyph-name="V.smcp" 
 />
    <glyph glyph-name="W.smcp" 
 />
    <glyph glyph-name="X.smcp" 
 />
    <glyph glyph-name="Y.smcp" 
 />
    <glyph glyph-name="Z.smcp" 
 />
    <glyph glyph-name="Aacute" 
 />
    <glyph glyph-name="Abreve" 
 />
    <glyph glyph-name="Acircumflex" 
 />
    <glyph glyph-name="Adieresis" 
 />
    <glyph glyph-name="Agrave" 
 />
    <glyph glyph-name="Amacron" 
 />
    <glyph glyph-name="Aogonek" 
 />
    <glyph glyph-name="Aring" 
 />
    <glyph glyph-name="Aringacute" 
 />
    <glyph glyph-name="Atilde" 
 />
    <glyph glyph-name="uni1EA0" 
 />
    <glyph glyph-name="uni1EA2" 
 />
    <glyph glyph-name="uni1EA4" 
 />
    <glyph glyph-name="uni1EAC" 
 />
    <glyph glyph-name="uni1EA6" 
 />
    <glyph glyph-name="uni1EA8" 
 />
    <glyph glyph-name="uni1EAE" 
 />
    <glyph glyph-name="uni1EAA" 
 />
    <glyph glyph-name="uni1EB0" 
 />
    <glyph glyph-name="uni1EB2" 
 />
    <glyph glyph-name="uni1EB4" 
 />
    <glyph glyph-name="uni1EB6" 
 />
    <glyph glyph-name="AE" 
 />
    <glyph glyph-name="AEacute" 
 />
    <glyph glyph-name="uni1E02" 
 />
    <glyph glyph-name="Cacute" 
 />
    <glyph glyph-name="Ccedilla" 
 />
    <glyph glyph-name="Ccircumflex" 
 />
    <glyph glyph-name="Cdotaccent" 
 />
    <glyph glyph-name="Ccaron" 
 />
    <glyph glyph-name="Dcaron" 
 />
    <glyph glyph-name="Dcroat" 
 />
    <glyph glyph-name="uni1E0A" 
 />
    <glyph glyph-name="Eacute" 
 />
    <glyph glyph-name="Ebreve" 
 />
    <glyph glyph-name="Ecircumflex" 
 />
    <glyph glyph-name="Edieresis" 
 />
    <glyph glyph-name="Edotaccent" 
 />
    <glyph glyph-name="Egrave" 
 />
    <glyph glyph-name="Emacron" 
 />
    <glyph glyph-name="Eogonek" 
 />
    <glyph glyph-name="Ecaron" 
 />
    <glyph glyph-name="uni1EB8" 
 />
    <glyph glyph-name="uni1EBA" 
 />
    <glyph glyph-name="uni1EBC" 
 />
    <glyph glyph-name="uni1EBE" 
 />
    <glyph glyph-name="uni1EC0" 
 />
    <glyph glyph-name="uni1EC2" 
 />
    <glyph glyph-name="uni1EC4" 
 />
    <glyph glyph-name="uni1EC6" 
 />
    <glyph glyph-name="uni1E1E" 
 />
    <glyph glyph-name="Gcircumflex" 
 />
    <glyph glyph-name="Gbreve" 
 />
    <glyph glyph-name="Gdotaccent" 
 />
    <glyph glyph-name="uni0122" 
 />
    <glyph glyph-name="Gcaron" 
 />
    <glyph glyph-name="Gcircumflex.alt1" 
 />
    <glyph glyph-name="Gbreve.alt1" 
 />
    <glyph glyph-name="Gdotaccent.alt1" 
 />
    <glyph glyph-name="Gcommaaccent.alt1" 
 />
    <glyph glyph-name="Gcaron.alt1" 
 />
    <glyph glyph-name="Hbar" 
 />
    <glyph glyph-name="Hcircumflex" 
 />
    <glyph glyph-name="uni1E22" 
 />
    <glyph glyph-name="Iacute" 
 />
    <glyph glyph-name="Ibreve" 
 />
    <glyph glyph-name="Icircumflex" 
 />
    <glyph glyph-name="Idieresis" 
 />
    <glyph glyph-name="Idotaccent" 
 />
    <glyph glyph-name="Igrave" 
 />
    <glyph glyph-name="Imacron" 
 />
    <glyph glyph-name="Iogonek" 
 />
    <glyph glyph-name="Itilde" 
 />
    <glyph glyph-name="uni1EC8" 
 />
    <glyph glyph-name="uni1ECA" 
 />
    <glyph glyph-name="IJ" 
 />
    <glyph glyph-name="Iacute_J.loclNLD" 
 />
    <glyph glyph-name="Jcircumflex" 
 />
    <glyph glyph-name="uni0136" 
 />
    <glyph glyph-name="Lacute" 
 />
    <glyph glyph-name="Lcaron" 
 />
    <glyph glyph-name="uni013B" 
 />
    <glyph glyph-name="Ldot" 
 />
    <glyph glyph-name="Lslash" 
 />
    <glyph glyph-name="Nacute" 
 />
    <glyph glyph-name="Ncaron" 
 />
    <glyph glyph-name="uni0145" 
 />
    <glyph glyph-name="Ntilde" 
 />
    <glyph glyph-name="uni019D" 
 />
    <glyph glyph-name="Eng" 
 />
    <glyph glyph-name="Oacute" 
 />
    <glyph glyph-name="Obreve" 
 />
    <glyph glyph-name="Ocircumflex" 
 />
    <glyph glyph-name="Odieresis" 
 />
    <glyph glyph-name="Ograve" 
 />
    <glyph glyph-name="Ohungarumlaut" 
 />
    <glyph glyph-name="Omacron" 
 />
    <glyph glyph-name="Oslash" 
 />
    <glyph glyph-name="Oslashacute" 
 />
    <glyph glyph-name="Otilde" 
 />
    <glyph glyph-name="uni01EA" 
 />
    <glyph glyph-name="uni1ECC" 
 />
    <glyph glyph-name="uni1ECE" 
 />
    <glyph glyph-name="uni1ED0" 
 />
    <glyph glyph-name="uni1ED2" 
 />
    <glyph glyph-name="uni1ED4" 
 />
    <glyph glyph-name="uni1ED6" 
 />
    <glyph glyph-name="uni1ED8" 
 />
    <glyph glyph-name="Ohorn" 
 />
    <glyph glyph-name="uni1EDA" 
 />
    <glyph glyph-name="uni1EDC" 
 />
    <glyph glyph-name="uni1EDE" 
 />
    <glyph glyph-name="uni1EE0" 
 />
    <glyph glyph-name="uni1EE2" 
 />
    <glyph glyph-name="OE" 
 />
    <glyph glyph-name="uni1E56" 
 />
    <glyph glyph-name="Racute" 
 />
    <glyph glyph-name="Rcaron" 
 />
    <glyph glyph-name="uni0156" 
 />
    <glyph glyph-name="Sacute" 
 />
    <glyph glyph-name="Scaron" 
 />
    <glyph glyph-name="Scircumflex" 
 />
    <glyph glyph-name="uni015E" 
 />
    <glyph glyph-name="uni0218" 
 />
    <glyph glyph-name="uni1E60" 
 />
    <glyph glyph-name="uni1E9E" 
 />
    <glyph glyph-name="Tbar" 
 />
    <glyph glyph-name="Tcaron" 
 />
    <glyph glyph-name="uni0162" 
 />
    <glyph glyph-name="uni021A" 
 />
    <glyph glyph-name="uni1E6A" 
 />
    <glyph glyph-name="Uacute" 
 />
    <glyph glyph-name="Ubreve" 
 />
    <glyph glyph-name="Ucircumflex" 
 />
    <glyph glyph-name="Udieresis" 
 />
    <glyph glyph-name="Ugrave" 
 />
    <glyph glyph-name="Uhungarumlaut" 
 />
    <glyph glyph-name="Umacron" 
 />
    <glyph glyph-name="Uogonek" 
 />
    <glyph glyph-name="Uring" 
 />
    <glyph glyph-name="Utilde" 
 />
    <glyph glyph-name="uni1EE4" 
 />
    <glyph glyph-name="Uhorn" 
 />
    <glyph glyph-name="uni1EE6" 
 />
    <glyph glyph-name="uni1EE8" 
 />
    <glyph glyph-name="uni1EEA" 
 />
    <glyph glyph-name="uni1EEC" 
 />
    <glyph glyph-name="uni1EEE" 
 />
    <glyph glyph-name="uni1EF0" 
 />
    <glyph glyph-name="Wacute" 
 />
    <glyph glyph-name="Wcircumflex" 
 />
    <glyph glyph-name="Wdieresis" 
 />
    <glyph glyph-name="Wgrave" 
 />
    <glyph glyph-name="Yacute" 
 />
    <glyph glyph-name="Ycircumflex" 
 />
    <glyph glyph-name="Ydieresis" 
 />
    <glyph glyph-name="Ygrave" 
 />
    <glyph glyph-name="uni0232" 
 />
    <glyph glyph-name="uni1EF4" 
 />
    <glyph glyph-name="uni1EF6" 
 />
    <glyph glyph-name="uni1EF8" 
 />
    <glyph glyph-name="Zacute" 
 />
    <glyph glyph-name="Zcaron" 
 />
    <glyph glyph-name="Zdotaccent" 
 />
    <glyph glyph-name="Eth" 
 />
    <glyph glyph-name="Thorn" 
 />
    <glyph glyph-name="aacute" 
 />
    <glyph glyph-name="abreve" 
 />
    <glyph glyph-name="acircumflex" 
 />
    <glyph glyph-name="adieresis" 
 />
    <glyph glyph-name="agrave" 
 />
    <glyph glyph-name="amacron" 
 />
    <glyph glyph-name="aogonek" 
 />
    <glyph glyph-name="aring" 
 />
    <glyph glyph-name="aringacute" 
 />
    <glyph glyph-name="atilde" 
 />
    <glyph glyph-name="uni1EA1" 
 />
    <glyph glyph-name="uni1EA3" 
 />
    <glyph glyph-name="uni1EA5" 
 />
    <glyph glyph-name="uni1EAD" 
 />
    <glyph glyph-name="uni1EA7" 
 />
    <glyph glyph-name="uni1EA9" 
 />
    <glyph glyph-name="uni1EAF" 
 />
    <glyph glyph-name="uni1EAB" 
 />
    <glyph glyph-name="uni1EB1" 
 />
    <glyph glyph-name="uni1EB3" 
 />
    <glyph glyph-name="uni1EB5" 
 />
    <glyph glyph-name="uni1EB7" 
 />
    <glyph glyph-name="ae" 
 />
    <glyph glyph-name="aeacute" 
 />
    <glyph glyph-name="aacute.alt1" 
 />
    <glyph glyph-name="abreve.alt1" 
 />
    <glyph glyph-name="acircumflex.alt1" 
 />
    <glyph glyph-name="adieresis.alt1" 
 />
    <glyph glyph-name="agrave.alt1" 
 />
    <glyph glyph-name="amacron.alt1" 
 />
    <glyph glyph-name="aogonek.alt1" 
 />
    <glyph glyph-name="aring.alt1" 
 />
    <glyph glyph-name="aringacute.alt1" 
 />
    <glyph glyph-name="atilde.alt1" 
 />
    <glyph glyph-name="uni1EA1.alt1" 
 />
    <glyph glyph-name="uni1EA3.alt1" 
 />
    <glyph glyph-name="uni1EA5.alt1" 
 />
    <glyph glyph-name="uni1EAD.alt1" 
 />
    <glyph glyph-name="uni1EA7.alt1" 
 />
    <glyph glyph-name="uni1EA9.alt1" 
 />
    <glyph glyph-name="uni1EAF.alt1" 
 />
    <glyph glyph-name="uni1EAB.alt1" 
 />
    <glyph glyph-name="uni1EB1.alt1" 
 />
    <glyph glyph-name="uni1EB3.alt1" 
 />
    <glyph glyph-name="uni1EB5.alt1" 
 />
    <glyph glyph-name="uni1EB7.alt1" 
 />
    <glyph glyph-name="ae.alt1" 
 />
    <glyph glyph-name="aeacute.alt1" 
 />
    <glyph glyph-name="uni1E03" 
 />
    <glyph glyph-name="cacute" 
 />
    <glyph glyph-name="ccedilla" 
 />
    <glyph glyph-name="ccircumflex" 
 />
    <glyph glyph-name="cdotaccent" 
 />
    <glyph glyph-name="ccaron" 
 />
    <glyph glyph-name="dcaron" 
 />
    <glyph glyph-name="dcroat" 
 />
    <glyph glyph-name="uni1E0B" 
 />
    <glyph glyph-name="eacute" 
 />
    <glyph glyph-name="ebreve" 
 />
    <glyph glyph-name="ecircumflex" 
 />
    <glyph glyph-name="edieresis" 
 />
    <glyph glyph-name="edotaccent" 
 />
    <glyph glyph-name="egrave" 
 />
    <glyph glyph-name="emacron" 
 />
    <glyph glyph-name="eogonek" 
 />
    <glyph glyph-name="ecaron" 
 />
    <glyph glyph-name="uni1EB9" 
 />
    <glyph glyph-name="uni1EBB" 
 />
    <glyph glyph-name="uni1EBD" 
 />
    <glyph glyph-name="uni1EBF" 
 />
    <glyph glyph-name="uni1EC1" 
 />
    <glyph glyph-name="uni1EC3" 
 />
    <glyph glyph-name="uni1EC5" 
 />
    <glyph glyph-name="uni1EC7" 
 />
    <glyph glyph-name="fl.alt1" 
 />
    <glyph glyph-name="f_f_l.alt1" 
 />
    <glyph glyph-name="uni1E1F" 
 />
    <glyph glyph-name="gcircumflex" 
 />
    <glyph glyph-name="gbreve" 
 />
    <glyph glyph-name="gdotaccent" 
 />
    <glyph glyph-name="uni0123" 
 />
    <glyph glyph-name="gcaron" 
 />
    <glyph glyph-name="hbar" 
 />
    <glyph glyph-name="hcircumflex" 
 />
    <glyph glyph-name="uni1E23" 
 />
    <glyph glyph-name="dotlessi" 
 />
    <glyph glyph-name="iacute" 
 />
    <glyph glyph-name="ibreve" 
 />
    <glyph glyph-name="icircumflex" 
 />
    <glyph glyph-name="idieresis" 
 />
    <glyph glyph-name="igrave" 
 />
    <glyph glyph-name="imacron" 
 />
    <glyph glyph-name="iogonek" 
 />
    <glyph glyph-name="itilde" 
 />
    <glyph glyph-name="uni1EC9" 
 />
    <glyph glyph-name="uni1ECB" 
 />
    <glyph glyph-name="i.dotaccent" 
 />
    <glyph glyph-name="ij" 
 />
    <glyph glyph-name="iacute_j.loclNLD" 
 />
    <glyph glyph-name="uni0237" 
 />
    <glyph glyph-name="jcircumflex" 
 />
    <glyph glyph-name="uni0137" 
 />
    <glyph glyph-name="kgreenlandic" 
 />
    <glyph glyph-name="lacute" 
 />
    <glyph glyph-name="uni013C" 
 />
    <glyph glyph-name="lcaron" 
 />
    <glyph glyph-name="ldot" 
 />
    <glyph glyph-name="lslash" 
 />
    <glyph glyph-name="lacute.alt1" 
 />
    <glyph glyph-name="lcommaaccent.alt1" 
 />
    <glyph glyph-name="lcaron.alt1" 
 />
    <glyph glyph-name="ldot.alt1" 
 />
    <glyph glyph-name="lslash.alt1" 
 />
    <glyph glyph-name="nacute" 
 />
    <glyph glyph-name="napostrophe" 
 />
    <glyph glyph-name="ncaron" 
 />
    <glyph glyph-name="uni0146" 
 />
    <glyph glyph-name="ntilde" 
 />
    <glyph glyph-name="uni0272" 
 />
    <glyph glyph-name="eng" 
 />
    <glyph glyph-name="oacute" 
 />
    <glyph glyph-name="obreve" 
 />
    <glyph glyph-name="ocircumflex" 
 />
    <glyph glyph-name="odieresis" 
 />
    <glyph glyph-name="ograve" 
 />
    <glyph glyph-name="ohungarumlaut" 
 />
    <glyph glyph-name="omacron" 
 />
    <glyph glyph-name="oslash" 
 />
    <glyph glyph-name="oslashacute" 
 />
    <glyph glyph-name="otilde" 
 />
    <glyph glyph-name="uni01EB" 
 />
    <glyph glyph-name="uni1ECD" 
 />
    <glyph glyph-name="uni1ECF" 
 />
    <glyph glyph-name="uni1ED1" 
 />
    <glyph glyph-name="uni1ED3" 
 />
    <glyph glyph-name="uni1ED5" 
 />
    <glyph glyph-name="uni1ED7" 
 />
    <glyph glyph-name="uni1ED9" 
 />
    <glyph glyph-name="ohorn" 
 />
    <glyph glyph-name="uni1EDB" 
 />
    <glyph glyph-name="uni1EDD" 
 />
    <glyph glyph-name="uni1EDF" 
 />
    <glyph glyph-name="uni1EE1" 
 />
    <glyph glyph-name="uni1EE3" 
 />
    <glyph glyph-name="oe" 
 />
    <glyph glyph-name="uni1E57" 
 />
    <glyph glyph-name="racute" 
 />
    <glyph glyph-name="rcaron" 
 />
    <glyph glyph-name="uni0157" 
 />
    <glyph glyph-name="sacute" 
 />
    <glyph glyph-name="scaron" 
 />
    <glyph glyph-name="scircumflex" 
 />
    <glyph glyph-name="uni015F" 
 />
    <glyph glyph-name="uni0219" 
 />
    <glyph glyph-name="uni1E61" 
 />
    <glyph glyph-name="germandbls" 
 />
    <glyph glyph-name="longs" 
 />
    <glyph glyph-name="tbar" 
 />
    <glyph glyph-name="tcaron" 
 />
    <glyph glyph-name="uni0163" 
 />
    <glyph glyph-name="uni021B" 
 />
    <glyph glyph-name="uni1E6B" 
 />
    <glyph glyph-name="uacute" 
 />
    <glyph glyph-name="ubreve" 
 />
    <glyph glyph-name="ucircumflex" 
 />
    <glyph glyph-name="udieresis" 
 />
    <glyph glyph-name="ugrave" 
 />
    <glyph glyph-name="uhungarumlaut" 
 />
    <glyph glyph-name="umacron" 
 />
    <glyph glyph-name="uogonek" 
 />
    <glyph glyph-name="uring" 
 />
    <glyph glyph-name="utilde" 
 />
    <glyph glyph-name="uni1EE5" 
 />
    <glyph glyph-name="uhorn" 
 />
    <glyph glyph-name="uni1EE7" 
 />
    <glyph glyph-name="uni1EE9" 
 />
    <glyph glyph-name="uni1EEB" 
 />
    <glyph glyph-name="uni1EED" 
 />
    <glyph glyph-name="uni1EEF" 
 />
    <glyph glyph-name="uni1EF1" 
 />
    <glyph glyph-name="wacute" 
 />
    <glyph glyph-name="wcircumflex" 
 />
    <glyph glyph-name="wdieresis" 
 />
    <glyph glyph-name="wgrave" 
 />
    <glyph glyph-name="yacute" 
 />
    <glyph glyph-name="ycircumflex" 
 />
    <glyph glyph-name="ydieresis" 
 />
    <glyph glyph-name="ygrave" 
 />
    <glyph glyph-name="uni0233" 
 />
    <glyph glyph-name="uni1EF5" 
 />
    <glyph glyph-name="uni1EF7" 
 />
    <glyph glyph-name="uni1EF9" 
 />
    <glyph glyph-name="yacute.alt1" 
 />
    <glyph glyph-name="ycircumflex.alt1" 
 />
    <glyph glyph-name="ydieresis.alt1" 
 />
    <glyph glyph-name="ygrave.alt1" 
 />
    <glyph glyph-name="uni0233.alt1" 
 />
    <glyph glyph-name="uni1EF5.alt1" 
 />
    <glyph glyph-name="uni1EF7.alt1" 
 />
    <glyph glyph-name="uni1EF9.alt1" 
 />
    <glyph glyph-name="zacute" 
 />
    <glyph glyph-name="zcaron" 
 />
    <glyph glyph-name="zdotaccent" 
 />
    <glyph glyph-name="eth" 
 />
    <glyph glyph-name="thorn" 
 />
    <glyph glyph-name="Aacute.smcp" 
 />
    <glyph glyph-name="Abreve.smcp" 
 />
    <glyph glyph-name="Acircumflex.smcp" 
 />
    <glyph glyph-name="Adieresis.smcp" 
 />
    <glyph glyph-name="Agrave.smcp" 
 />
    <glyph glyph-name="Amacron.smcp" 
 />
    <glyph glyph-name="Aogonek.smcp" 
 />
    <glyph glyph-name="Aring.smcp" 
 />
    <glyph glyph-name="Aringacute.smcp" 
 />
    <glyph glyph-name="Atilde.smcp" 
 />
    <glyph glyph-name="uni1EA0.smcp" 
 />
    <glyph glyph-name="uni1EA2.smcp" 
 />
    <glyph glyph-name="uni1EA4.smcp" 
 />
    <glyph glyph-name="uni1EAC.smcp" 
 />
    <glyph glyph-name="uni1EA6.smcp" 
 />
    <glyph glyph-name="uni1EA8.smcp" 
 />
    <glyph glyph-name="uni1EAE.smcp" 
 />
    <glyph glyph-name="uni1EAA.smcp" 
 />
    <glyph glyph-name="uni1EB0.smcp" 
 />
    <glyph glyph-name="uni1EB2.smcp" 
 />
    <glyph glyph-name="uni1EB4.smcp" 
 />
    <glyph glyph-name="uni1EB6.smcp" 
 />
    <glyph glyph-name="AE.smcp" 
 />
    <glyph glyph-name="AEacute.smcp" 
 />
    <glyph glyph-name="uni1E02.smcp" 
 />
    <glyph glyph-name="Cacute.smcp" 
 />
    <glyph glyph-name="Ccaron.smcp" 
 />
    <glyph glyph-name="Ccedilla.smcp" 
 />
    <glyph glyph-name="Ccircumflex.smcp" 
 />
    <glyph glyph-name="Cdotaccent.smcp" 
 />
    <glyph glyph-name="Dcaron.smcp" 
 />
    <glyph glyph-name="Dcroat.smcp" 
 />
    <glyph glyph-name="uni1E0A.smcp" 
 />
    <glyph glyph-name="Eacute.smcp" 
 />
    <glyph glyph-name="Ebreve.smcp" 
 />
    <glyph glyph-name="Ecaron.smcp" 
 />
    <glyph glyph-name="Ecircumflex.smcp" 
 />
    <glyph glyph-name="Edieresis.smcp" 
 />
    <glyph glyph-name="Edotaccent.smcp" 
 />
    <glyph glyph-name="Egrave.smcp" 
 />
    <glyph glyph-name="Emacron.smcp" 
 />
    <glyph glyph-name="Eogonek.smcp" 
 />
    <glyph glyph-name="uni1EB8.smcp" 
 />
    <glyph glyph-name="uni1EBA.smcp" 
 />
    <glyph glyph-name="uni1EBC.smcp" 
 />
    <glyph glyph-name="uni1EBE.smcp" 
 />
    <glyph glyph-name="uni1EC0.smcp" 
 />
    <glyph glyph-name="uni1EC2.smcp" 
 />
    <glyph glyph-name="uni1EC4.smcp" 
 />
    <glyph glyph-name="uni1EC6.smcp" 
 />
    <glyph glyph-name="uni1E1E.smcp" 
 />
    <glyph glyph-name="fi.smcp" 
 />
    <glyph glyph-name="fl.smcp" 
 />
    <glyph glyph-name="Gcircumflex.smcp" 
 />
    <glyph glyph-name="Gbreve.smcp" 
 />
    <glyph glyph-name="Gdotaccent.smcp" 
 />
    <glyph glyph-name="Gcommaaccent.smcp" 
 />
    <glyph glyph-name="Gcaron.smcp" 
 />
    <glyph glyph-name="Gcircumflex.smcp.alt1" 
 />
    <glyph glyph-name="Gbreve.smcp.alt1" 
 />
    <glyph glyph-name="Gdotaccent.smcp.alt1" 
 />
    <glyph glyph-name="Gcommaaccent.smcp.alt1" 
 />
    <glyph glyph-name="Gcaron.smcp.alt1" 
 />
    <glyph glyph-name="Hbar.smcp" 
 />
    <glyph glyph-name="Hcircumflex.smcp" 
 />
    <glyph glyph-name="uni1E22.smcp" 
 />
    <glyph glyph-name="Iacute.smcp" 
 />
    <glyph glyph-name="Ibreve.smcp" 
 />
    <glyph glyph-name="Igrave.smcp" 
 />
    <glyph glyph-name="Icircumflex.smcp" 
 />
    <glyph glyph-name="Idieresis.smcp" 
 />
    <glyph glyph-name="Idotaccent.smcp" 
 />
    <glyph glyph-name="Imacron.smcp" 
 />
    <glyph glyph-name="Iogonek.smcp" 
 />
    <glyph glyph-name="Itilde.smcp" 
 />
    <glyph glyph-name="uni1EC8.smcp" 
 />
    <glyph glyph-name="uni1ECA.smcp" 
 />
    <glyph glyph-name="IJ.smcp" 
 />
    <glyph glyph-name="Iacute_J.loclNLD.smcp.loclNLD" 
 />
    <glyph glyph-name="Jcircumflex.smcp" 
 />
    <glyph glyph-name="Kcommaaccent.smcp" 
 />
    <glyph glyph-name="Lacute.smcp" 
 />
    <glyph glyph-name="Lcaron.smcp" 
 />
    <glyph glyph-name="Lcommaaccent.smcp" 
 />
    <glyph glyph-name="Ldot.smcp" 
 />
    <glyph glyph-name="Lslash.smcp" 
 />
    <glyph glyph-name="Nacute.smcp" 
 />
    <glyph glyph-name="Ncaron.smcp" 
 />
    <glyph glyph-name="Ncommaaccent.smcp" 
 />
    <glyph glyph-name="Ntilde.smcp" 
 />
    <glyph glyph-name="uni019D.smcp" 
 />
    <glyph glyph-name="Eng.smcp" 
 />
    <glyph glyph-name="Oacute.smcp" 
 />
    <glyph glyph-name="Obreve.smcp" 
 />
    <glyph glyph-name="Ocircumflex.smcp" 
 />
    <glyph glyph-name="Odieresis.smcp" 
 />
    <glyph glyph-name="Ograve.smcp" 
 />
    <glyph glyph-name="Ohungarumlaut.smcp" 
 />
    <glyph glyph-name="Oslash.smcp" 
 />
    <glyph glyph-name="Oslashacute.smcp" 
 />
    <glyph glyph-name="Omacron.smcp" 
 />
    <glyph glyph-name="Otilde.smcp" 
 />
    <glyph glyph-name="uni01EA.smcp" 
 />
    <glyph glyph-name="uni1ECC.smcp" 
 />
    <glyph glyph-name="uni1ECE.smcp" 
 />
    <glyph glyph-name="uni1ED0.smcp" 
 />
    <glyph glyph-name="uni1ED2.smcp" 
 />
    <glyph glyph-name="uni1ED4.smcp" 
 />
    <glyph glyph-name="uni1ED6.smcp" 
 />
    <glyph glyph-name="uni1ED8.smcp" 
 />
    <glyph glyph-name="Ohorn.smcp" 
 />
    <glyph glyph-name="uni1EDA.smcp" 
 />
    <glyph glyph-name="uni1EDC.smcp" 
 />
    <glyph glyph-name="uni1EDE.smcp" 
 />
    <glyph glyph-name="uni1EE0.smcp" 
 />
    <glyph glyph-name="uni1EE2.smcp" 
 />
    <glyph glyph-name="OE.smcp" 
 />
    <glyph glyph-name="uni1E56.smcp" 
 />
    <glyph glyph-name="Racute.smcp" 
 />
    <glyph glyph-name="Rcaron.smcp" 
 />
    <glyph glyph-name="Rcommaaccent.smcp" 
 />
    <glyph glyph-name="Sacute.smcp" 
 />
    <glyph glyph-name="Scaron.smcp" 
 />
    <glyph glyph-name="Scircumflex.smcp" 
 />
    <glyph glyph-name="Scedilla.smcp" 
 />
    <glyph glyph-name="Scommaaccent.smcp" 
 />
    <glyph glyph-name="uni1E60.smcp" 
 />
    <glyph glyph-name="uni1E9E.smcp" 
 />
    <glyph glyph-name="germandbls.smcp" 
 />
    <glyph glyph-name="Tbar.smcp" 
 />
    <glyph glyph-name="Tcaron.smcp" 
 />
    <glyph glyph-name="uni0162.smcp" 
 />
    <glyph glyph-name="uni021A.smcp" 
 />
    <glyph glyph-name="uni1E6A.smcp" 
 />
    <glyph glyph-name="Uacute.smcp" 
 />
    <glyph glyph-name="Ubreve.smcp" 
 />
    <glyph glyph-name="Ucircumflex.smcp" 
 />
    <glyph glyph-name="Udieresis.smcp" 
 />
    <glyph glyph-name="Ugrave.smcp" 
 />
    <glyph glyph-name="Uhungarumlaut.smcp" 
 />
    <glyph glyph-name="Umacron.smcp" 
 />
    <glyph glyph-name="Uogonek.smcp" 
 />
    <glyph glyph-name="Uring.smcp" 
 />
    <glyph glyph-name="Utilde.smcp" 
 />
    <glyph glyph-name="uni1EE4.smcp" 
 />
    <glyph glyph-name="Uhorn.smcp" 
 />
    <glyph glyph-name="uni1EE6.smcp" 
 />
    <glyph glyph-name="uni1EE8.smcp" 
 />
    <glyph glyph-name="uni1EEA.smcp" 
 />
    <glyph glyph-name="uni1EEC.smcp" 
 />
    <glyph glyph-name="uni1EEE.smcp" 
 />
    <glyph glyph-name="uni1EF0.smcp" 
 />
    <glyph glyph-name="Wacute.smcp" 
 />
    <glyph glyph-name="Wcircumflex.smcp" 
 />
    <glyph glyph-name="Wdieresis.smcp" 
 />
    <glyph glyph-name="Wgrave.smcp" 
 />
    <glyph glyph-name="Yacute.smcp" 
 />
    <glyph glyph-name="Ycircumflex.smcp" 
 />
    <glyph glyph-name="Ydieresis.smcp" 
 />
    <glyph glyph-name="Ygrave.smcp" 
 />
    <glyph glyph-name="uni0232.smcp" 
 />
    <glyph glyph-name="uni1EF4.smcp" 
 />
    <glyph glyph-name="uni1EF6.smcp" 
 />
    <glyph glyph-name="uni1EF8.smcp" 
 />
    <glyph glyph-name="Zacute.smcp" 
 />
    <glyph glyph-name="Zcaron.smcp" 
 />
    <glyph glyph-name="Zdotaccent.smcp" 
 />
    <glyph glyph-name="Eth.smcp" 
 />
    <glyph glyph-name="Thorn.smcp" 
 />
    <glyph glyph-name="acute" 
 />
    <glyph glyph-name="acutecomb" 
 />
    <glyph glyph-name="gravecomb" 
 />
    <glyph glyph-name="uni02CB" 
 />
    <glyph glyph-name="circumflex" 
 />
    <glyph glyph-name="uni0302" 
 />
    <glyph glyph-name="caron" 
 />
    <glyph glyph-name="uni030C" 
 />
    <glyph glyph-name="hungarumlaut" 
 />
    <glyph glyph-name="uni030B" 
 />
    <glyph glyph-name="dieresis" 
 />
    <glyph glyph-name="uni0308" 
 />
    <glyph glyph-name="dotaccent" 
 />
    <glyph glyph-name="uni0307" 
 />
    <glyph glyph-name="ring" 
 />
    <glyph glyph-name="uni030A" 
 />
    <glyph glyph-name="tilde" 
 />
    <glyph glyph-name="tildecomb" 
 />
    <glyph glyph-name="macron" 
 />
    <glyph glyph-name="uni0304" 
 />
    <glyph glyph-name="uni203E" 
 />
    <glyph glyph-name="breve" 
 />
    <glyph glyph-name="uni0306" 
 />
    <glyph glyph-name="cedilla" 
 />
    <glyph glyph-name="uni0327" 
 />
    <glyph glyph-name="ogonek" 
 />
    <glyph glyph-name="uni0328" 
 />
    <glyph glyph-name="uniF6C3" 
 />
    <glyph glyph-name="uni0326" 
 />
    <glyph glyph-name="uni02C9" 
 />
    <glyph glyph-name="uni0309" 
 />
    <glyph glyph-name="breve.cy" 
 />
    <glyph glyph-name="Alpha" 
 />
    <glyph glyph-name="Beta" 
 />
    <glyph glyph-name="Gamma" 
 />
    <glyph glyph-name="uni0394" 
 />
    <glyph glyph-name="uni2206" 
 />
    <glyph glyph-name="Epsilon" 
 />
    <glyph glyph-name="Zeta" 
 />
    <glyph glyph-name="Eta" 
 />
    <glyph glyph-name="Theta" 
 />
    <glyph glyph-name="Iota" 
 />
    <glyph glyph-name="Kappa" 
 />
    <glyph glyph-name="Lambda" 
 />
    <glyph glyph-name="Mu" 
 />
    <glyph glyph-name="Nu" 
 />
    <glyph glyph-name="Xi" 
 />
    <glyph glyph-name="Omicron" 
 />
    <glyph glyph-name="Pi" 
 />
    <glyph glyph-name="Rho" 
 />
    <glyph glyph-name="Sigma" 
 />
    <glyph glyph-name="Tau" 
 />
    <glyph glyph-name="Upsilon" 
 />
    <glyph glyph-name="Phi" 
 />
    <glyph glyph-name="Chi" 
 />
    <glyph glyph-name="Psi" 
 />
    <glyph glyph-name="uni03A9" 
 />
    <glyph glyph-name="uni2126" 
 />
    <glyph glyph-name="alpha" 
 />
    <glyph glyph-name="beta" 
 />
    <glyph glyph-name="gamma" 
 />
    <glyph glyph-name="delta" 
 />
    <glyph glyph-name="epsilon" 
 />
    <glyph glyph-name="zeta" 
 />
    <glyph glyph-name="eta" 
 />
    <glyph glyph-name="theta" 
 />
    <glyph glyph-name="iota" 
 />
    <glyph glyph-name="kappa" 
 />
    <glyph glyph-name="lambda" 
 />
    <glyph glyph-name="uni03BC" 
 />
    <glyph glyph-name="uni00B5" 
 />
    <glyph glyph-name="nu" 
 />
    <glyph glyph-name="xi" 
 />
    <glyph glyph-name="omicron" 
 />
    <glyph glyph-name="pi" 
 />
    <glyph glyph-name="rho" 
 />
    <glyph glyph-name="uni03C2" 
 />
    <glyph glyph-name="sigma" 
 />
    <glyph glyph-name="tau" 
 />
    <glyph glyph-name="upsilon" 
 />
    <glyph glyph-name="phi" 
 />
    <glyph glyph-name="chi" 
 />
    <glyph glyph-name="psi" 
 />
    <glyph glyph-name="omega" 
 />
    <glyph glyph-name="Alphatonos" 
 />
    <glyph glyph-name="Epsilontonos" 
 />
    <glyph glyph-name="Etatonos" 
 />
    <glyph glyph-name="Iotatonos" 
 />
    <glyph glyph-name="Omicrontonos" 
 />
    <glyph glyph-name="Upsilontonos" 
 />
    <glyph glyph-name="Omegatonos" 
 />
    <glyph glyph-name="Iotadieresis" 
 />
    <glyph glyph-name="Upsilondieresis" 
 />
    <glyph glyph-name="alphatonos" 
 />
    <glyph glyph-name="epsilontonos" 
 />
    <glyph glyph-name="etatonos" 
 />
    <glyph glyph-name="iotatonos" 
 />
    <glyph glyph-name="iotadieresis" 
 />
    <glyph glyph-name="iotadieresistonos" 
 />
    <glyph glyph-name="upsilontonos" 
 />
    <glyph glyph-name="upsilondieresis" 
 />
    <glyph glyph-name="upsilondieresistonos" 
 />
    <glyph glyph-name="omicrontonos" 
 />
    <glyph glyph-name="omegatonos" 
 />
    <glyph glyph-name="tonos" 
 />
    <glyph glyph-name="dieresistonos" 
 />
    <glyph glyph-name="uni0410" 
 />
    <glyph glyph-name="uni0411" 
 />
    <glyph glyph-name="uni0412" 
 />
    <glyph glyph-name="uni0413" 
 />
    <glyph glyph-name="uni0414" 
 />
    <glyph glyph-name="uni0415" 
 />
    <glyph glyph-name="uni0401" 
 />
    <glyph glyph-name="uni0416" 
 />
    <glyph glyph-name="uni0417" 
 />
    <glyph glyph-name="uni0418" 
 />
    <glyph glyph-name="uni0419" 
 />
    <glyph glyph-name="uni041A" 
 />
    <glyph glyph-name="uni041B" 
 />
    <glyph glyph-name="uni041C" 
 />
    <glyph glyph-name="uni041D" 
 />
    <glyph glyph-name="uni041E" 
 />
    <glyph glyph-name="uni041F" 
 />
    <glyph glyph-name="uni0420" 
 />
    <glyph glyph-name="uni0421" 
 />
    <glyph glyph-name="uni0422" 
 />
    <glyph glyph-name="uni0423" 
 />
    <glyph glyph-name="uni0424" 
 />
    <glyph glyph-name="uni0425" 
 />
    <glyph glyph-name="uni0426" 
 />
    <glyph glyph-name="uni0427" 
 />
    <glyph glyph-name="uni0428" 
 />
    <glyph glyph-name="uni0429" 
 />
    <glyph glyph-name="uni042A" 
 />
    <glyph glyph-name="uni042B" 
 />
    <glyph glyph-name="uni042C" 
 />
    <glyph glyph-name="uni042D" 
 />
    <glyph glyph-name="uni042E" 
 />
    <glyph glyph-name="uni042F" 
 />
    <glyph glyph-name="uni0402" 
 />
    <glyph glyph-name="uni0403" 
 />
    <glyph glyph-name="uni0404" 
 />
    <glyph glyph-name="uni0409" 
 />
    <glyph glyph-name="uni040A" 
 />
    <glyph glyph-name="uni040C" 
 />
    <glyph glyph-name="uni040B" 
 />
    <glyph glyph-name="uni040E" 
 />
    <glyph glyph-name="uni040F" 
 />
    <glyph glyph-name="uni0490" 
 />
    <glyph glyph-name="uni0406" 
 />
    <glyph glyph-name="uni0407" 
 />
    <glyph glyph-name="uni0408" 
 />
    <glyph glyph-name="uni0405" 
 />
    <glyph glyph-name="uni0492" 
 />
    <glyph glyph-name="uni049A" 
 />
    <glyph glyph-name="uni04B2" 
 />
    <glyph glyph-name="uni04E8" 
 />
    <glyph glyph-name="uni018F" 
 />
    <glyph glyph-name="uni0430" 
 />
    <glyph glyph-name="uni0430.alt1" 
 />
    <glyph glyph-name="uni0431" 
 />
    <glyph glyph-name="uni0432" 
 />
    <glyph glyph-name="uni0433" 
 />
    <glyph glyph-name="uni0434" 
 />
    <glyph glyph-name="uni0435" 
 />
    <glyph glyph-name="uni0451" 
 />
    <glyph glyph-name="uni0436" 
 />
    <glyph glyph-name="uni0437" 
 />
    <glyph glyph-name="uni0438" 
 />
    <glyph glyph-name="uni0439" 
 />
    <glyph glyph-name="uni043A" 
 />
    <glyph glyph-name="uni043B" 
 />
    <glyph glyph-name="uni043C" 
 />
    <glyph glyph-name="uni043D" 
 />
    <glyph glyph-name="uni043E" 
 />
    <glyph glyph-name="uni043F" 
 />
    <glyph glyph-name="uni0440" 
 />
    <glyph glyph-name="uni0441" 
 />
    <glyph glyph-name="uni0442" 
 />
    <glyph glyph-name="uni0443" 
 />
    <glyph glyph-name="uni0444" 
 />
    <glyph glyph-name="uni0445" 
 />
    <glyph glyph-name="uni0446" 
 />
    <glyph glyph-name="uni0447" 
 />
    <glyph glyph-name="uni0448" 
 />
    <glyph glyph-name="uni0449" 
 />
    <glyph glyph-name="uni044A" 
 />
    <glyph glyph-name="uni044B" 
 />
    <glyph glyph-name="uni044C" 
 />
    <glyph glyph-name="uni044D" 
 />
    <glyph glyph-name="uni044E" 
 />
    <glyph glyph-name="uni044F" 
 />
    <glyph glyph-name="uni0452" 
 />
    <glyph glyph-name="uni0453" 
 />
    <glyph glyph-name="uni0454" 
 />
    <glyph glyph-name="uni0459" 
 />
    <glyph glyph-name="uni045A" 
 />
    <glyph glyph-name="uni045C" 
 />
    <glyph glyph-name="uni045B" 
 />
    <glyph glyph-name="uni045E" 
 />
    <glyph glyph-name="uni045F" 
 />
    <glyph glyph-name="uni0491" 
 />
    <glyph glyph-name="uni0456" 
 />
    <glyph glyph-name="uni0457" 
 />
    <glyph glyph-name="uni0455" 
 />
    <glyph glyph-name="uni0458" 
 />
    <glyph glyph-name="uni0493" 
 />
    <glyph glyph-name="uni049B" 
 />
    <glyph glyph-name="uni04B3" 
 />
    <glyph glyph-name="uni04E9" 
 />
    <glyph glyph-name="uni0259" 
 />
    <glyph glyph-name="ampersand" 
 />
    <glyph glyph-name="ampersand.smcp" 
 />
    <glyph glyph-name="numbersign" 
 />
    <glyph glyph-name="numbersign.onum" 
 />
    <glyph glyph-name="at" 
 />
    <glyph glyph-name="percent" 
 />
    <glyph glyph-name="percent.onum" 
 />
    <glyph glyph-name="perthousand" 
 />
    <glyph glyph-name="perthousand.onum" 
 />
    <glyph glyph-name="parenleft.case" 
 />
    <glyph glyph-name="parenright.case" 
 />
    <glyph glyph-name="bracketleft.case" 
 />
    <glyph glyph-name="bracketright.case" 
 />
    <glyph glyph-name="braceleft" 
 />
    <glyph glyph-name="braceright" 
 />
    <glyph glyph-name="braceleft.case" 
 />
    <glyph glyph-name="braceright.case" 
 />
    <glyph glyph-name="dagger" 
 />
    <glyph glyph-name="daggerdbl" 
 />
    <glyph glyph-name="section" 
 />
    <glyph glyph-name="paragraph" 
 />
    <glyph glyph-name="ellipsis" 
 />
    <glyph glyph-name="colon" 
 />
    <glyph glyph-name="semicolon" 
 />
    <glyph glyph-name="uni037E" 
 />
    <glyph glyph-name="exclam" 
 />
    <glyph glyph-name="exclamdown" 
 />
    <glyph glyph-name="exclamdown.case" 
 />
    <glyph glyph-name="exclam.smcp" 
 />
    <glyph glyph-name="exclamdown.smcp" 
 />
    <glyph glyph-name="question" 
 />
    <glyph glyph-name="questiondown" 
 />
    <glyph glyph-name="questiondown.case" 
 />
    <glyph glyph-name="question.smcp" 
 />
    <glyph glyph-name="questiondown.smcp" 
 />
    <glyph glyph-name="uni203D" 
 />
    <glyph glyph-name="uni2E18" 
 />
    <glyph glyph-name="uni2E18.case" 
 />
    <glyph glyph-name="uni203D.smcp" 
 />
    <glyph glyph-name="uni2E18.smcp" 
 />
    <glyph glyph-name="quotedbl" 
 />
    <glyph glyph-name="quotedblright" 
 />
    <glyph glyph-name="quoteleft" 
 />
    <glyph glyph-name="uni02BC" 
 />
    <glyph glyph-name="quotedblbase" 
 />
    <glyph glyph-name="guillemotleft" 
 />
    <glyph glyph-name="guillemotright" 
 />
    <glyph glyph-name="guillemotleft.case" 
 />
    <glyph glyph-name="guillemotright.case" 
 />
    <glyph glyph-name="guilsinglleft" 
 />
    <glyph glyph-name="guilsinglright" 
 />
    <glyph glyph-name="guilsinglleft.case" 
 />
    <glyph glyph-name="guilsinglright.case" 
 />
    <glyph glyph-name="uni00AD" 
 />
    <glyph glyph-name="hyphen.case" 
 />
    <glyph glyph-name="endash" 
 />
    <glyph glyph-name="endash.case" 
 />
    <glyph glyph-name="uni2015" 
 />
    <glyph glyph-name="emdash" 
 />
    <glyph glyph-name="emdash.case" 
 />
    <glyph glyph-name="periodcentered" 
 />
    <glyph glyph-name="uni2219" 
 />
    <glyph glyph-name="periodcentered.case" 
 />
    <glyph glyph-name="bullet" 
 />
    <glyph glyph-name="bullet.case" 
 />
    <glyph glyph-name="dollar" 
 />
    <glyph glyph-name="dollar.onum" 
 />
    <glyph glyph-name="cent" 
 />
    <glyph glyph-name="cent.case" 
 />
    <glyph glyph-name="cent.onum" 
 />
    <glyph glyph-name="sterling" 
 />
    <glyph glyph-name="sterling.onum" 
 />
    <glyph glyph-name="yen" 
 />
    <glyph glyph-name="yen.onum" 
 />
    <glyph glyph-name="Euro" 
 />
    <glyph glyph-name="Euro.onum" 
 />
    <glyph glyph-name="uni0192" 
 />
    <glyph glyph-name="florin.onum" 
 />
    <glyph glyph-name="currency" 
 />
    <glyph glyph-name="colonmonetary" 
 />
    <glyph glyph-name="colonmonetary.onum" 
 />
    <glyph glyph-name="uni20A3" 
 />
    <glyph glyph-name="lira" 
 />
    <glyph glyph-name="uni20A6" 
 />
    <glyph glyph-name="peseta" 
 />
    <glyph glyph-name="uni20A8" 
 />
    <glyph glyph-name="R_p" 
 />
    <glyph glyph-name="uni20A9" 
 />
    <glyph glyph-name="uni20AA" 
 />
    <glyph glyph-name="dong" 
 />
    <glyph glyph-name="uni20B9" 
 />
    <glyph glyph-name="uni20BA" 
 />
    <glyph glyph-name="uni20BD" 
 />
    <glyph glyph-name="registered" 
 />
    <glyph glyph-name="copyright" 
 />
    <glyph glyph-name="uni2117" 
 />
    <glyph glyph-name="trademark" 
 />
    <glyph glyph-name="uni2120" 
 />
    <glyph glyph-name="uni2113" 
 />
    <glyph glyph-name="uni2116" 
 />
    <glyph glyph-name="estimated" 
 />
    <glyph glyph-name="slash" 
 />
    <glyph glyph-name="asciitilde" 
 />
    <glyph glyph-name="bar" 
 />
    <glyph glyph-name="brokenbar" 
 />
    <glyph glyph-name="minus" 
 />
    <glyph glyph-name="multiply" 
 />
    <glyph glyph-name="divide" 
 />
    <glyph glyph-name="dotmath" 
 />
    <glyph glyph-name="less" 
 />
    <glyph glyph-name="greater" 
 />
    <glyph glyph-name="equal" 
 />
    <glyph glyph-name="notequal" 
 />
    <glyph glyph-name="plusminus" 
 />
    <glyph glyph-name="lessequal" 
 />
    <glyph glyph-name="greaterequal" 
 />
    <glyph glyph-name="logicalnot" 
 />
    <glyph glyph-name="approxequal" 
 />
    <glyph glyph-name="integral" 
 />
    <glyph glyph-name="radical" 
 />
    <glyph glyph-name="infinity" 
 />
    <glyph glyph-name="partialdiff" 
 />
    <glyph glyph-name="summation" 
 />
    <glyph glyph-name="product" 
 />
    <glyph glyph-name="lozenge" 
 />
    <glyph glyph-name="degree" 
 />
    <glyph glyph-name="uni2032" 
 />
    <glyph glyph-name="uni2033" 
 />
    <glyph glyph-name="ordfeminine" 
 />
    <glyph glyph-name="uniF6E9" 
 />
    <glyph glyph-name="uniF6EA" 
 />
    <glyph glyph-name="uniF6EB" 
 />
    <glyph glyph-name="uniF6EC" 
 />
    <glyph glyph-name="uni02B0" 
 />
    <glyph glyph-name="uniF637" 
 />
    <glyph glyph-name="uniF6ED" 
 />
    <glyph glyph-name="uniF6EE" 
 />
    <glyph glyph-name="uniF6EF" 
 />
    <glyph glyph-name="uni207F" 
 />
    <glyph glyph-name="ordmasculine" 
 />
    <glyph glyph-name="uniF6F0" 
 />
    <glyph glyph-name="uniF6F1" 
 />
    <glyph glyph-name="uniF6F2" 
 />
    <glyph glyph-name="uniF6F3" 
 />
    <glyph glyph-name="uni2070" 
 />
    <glyph glyph-name="uni00B9" 
 />
    <glyph glyph-name="uni00B2" 
 />
    <glyph glyph-name="uni00B3" 
 />
    <glyph glyph-name="uni2074" 
 />
    <glyph glyph-name="uni2075" 
 />
    <glyph glyph-name="uni2076" 
 />
    <glyph glyph-name="uni2077" 
 />
    <glyph glyph-name="uni2078" 
 />
    <glyph glyph-name="uni2079" 
 />
    <glyph glyph-name="uni207D" 
 />
    <glyph glyph-name="uni207E" 
 />
    <glyph glyph-name="uniF6E0" 
 />
    <glyph glyph-name="uniF6E2" 
 />
    <glyph glyph-name="uniF6E4" 
 />
    <glyph glyph-name="uniF6E6" 
 />
    <glyph glyph-name="uniF6E8" 
 />
    <glyph glyph-name="uni2080" 
 />
    <glyph glyph-name="uni2081" 
 />
    <glyph glyph-name="uni2082" 
 />
    <glyph glyph-name="uni2083" 
 />
    <glyph glyph-name="uni2084" 
 />
    <glyph glyph-name="uni2085" 
 />
    <glyph glyph-name="uni2086" 
 />
    <glyph glyph-name="uni2087" 
 />
    <glyph glyph-name="uni2088" 
 />
    <glyph glyph-name="uni2089" 
 />
    <glyph glyph-name="uni208D" 
 />
    <glyph glyph-name="uni208E" 
 />
    <glyph glyph-name="uniF6DF" 
 />
    <glyph glyph-name="uniF6E1" 
 />
    <glyph glyph-name="uniF6E3" 
 />
    <glyph glyph-name="uniF6E5" 
 />
    <glyph glyph-name="uniF6E7" 
 />
    <glyph glyph-name="zero.numr" 
 />
    <glyph glyph-name="one.numr" 
 />
    <glyph glyph-name="two.numr" 
 />
    <glyph glyph-name="three.numr" 
 />
    <glyph glyph-name="four.numr" 
 />
    <glyph glyph-name="five.numr" 
 />
    <glyph glyph-name="six.numr" 
 />
    <glyph glyph-name="seven.numr" 
 />
    <glyph glyph-name="eight.numr" 
 />
    <glyph glyph-name="nine.numr" 
 />
    <glyph glyph-name="fraction" 
 />
    <glyph glyph-name="uni2215" 
 />
    <glyph glyph-name="zero.dnom" 
 />
    <glyph glyph-name="one.dnom" 
 />
    <glyph glyph-name="two.dnom" 
 />
    <glyph glyph-name="three.dnom" 
 />
    <glyph glyph-name="four.dnom" 
 />
    <glyph glyph-name="five.dnom" 
 />
    <glyph glyph-name="six.dnom" 
 />
    <glyph glyph-name="seven.dnom" 
 />
    <glyph glyph-name="eight.dnom" 
 />
    <glyph glyph-name="nine.dnom" 
 />
    <glyph glyph-name="onehalf" 
 />
    <glyph glyph-name="onequarter" 
 />
    <glyph glyph-name="threequarters" 
 />
    <glyph glyph-name="uni2153" 
 />
    <glyph glyph-name="uni2154" 
 />
    <glyph glyph-name="oneeighth" 
 />
    <glyph glyph-name="threeeighths" 
 />
    <glyph glyph-name="fiveeighths" 
 />
    <glyph glyph-name="seveneighths" 
 />
    <glyph glyph-name="arrowleft" 
 />
    <glyph glyph-name="arrowup" 
 />
    <glyph glyph-name="arrowright" 
 />
    <glyph glyph-name="arrowdown" 
 />
    <glyph glyph-name="uni22B2" 
 />
    <glyph glyph-name="uni22B3" 
 />
    <glyph glyph-name="filledbox" 
 />
    <glyph glyph-name="triagup" 
 />
    <glyph glyph-name="triagdn" 
 />
    <glyph glyph-name="uni25CF" 
 />
    <glyph glyph-name="uni2605" 
 />
    <glyph glyph-name="uni2610" 
 />
    <glyph glyph-name="uni2611" 
 />
    <glyph glyph-name="diamond" 
 />
    <glyph glyph-name="uni2713" 
 />
    <glyph glyph-name="uniF8FF" 
 />
    <glyph glyph-name="uni2318" 
 />
    </font>
</defs>
</svg>
